.
» » На игле


Трейлер к фильму
Смотреть сейчас!

Описание фильма "На игле"

Культовый фильм, ставший визиткой МакГрегора и Бремнера. Шотландцы стали олицетворением типичных наркоманов, мечтающих завязать с привычкой, десятки раз бросавших употреблять, но снова возвращались к привычному образу жизни. Не смотря на то, что На Игле- настоящая драма, буквально каждый момент фильма наполнен жестким, но качественным юмором, сочетающимся с необычной философией наркоманов.
Картина рассказывает о четырех друзьях, каждый из них со своими причудами, но всех четверых объединяет страсть к запрещенным препаратам. Кто-то из них даже не старается выбраться из этой однотонной череды событий: секс-наркотики-рок-н-ролл. Тем не менее, главный герой Марк изо всех сил старается начать обычную жизнь обычного Британца: ищет работу, снимает жилье, пытается наладить отношения с родственниками, проходит лечение в реабилитационном центре, но это дает мало успехов.
И вот судьба четырех друзей переворачивается с ног на голову, когда у них в руках появляется огромная сумма денег, которую надо справедливо разделить между собой, но расстаться с деньгами героям оказывается не так легко.

Скачать На игле через торрент

Вниманию правообладателей! Просьба претензии к контенту отправлять на почтовый ящик [email protected]
Сиды Качество Перевод Размер Видео Аудио
Скачать Загрузка... BDRemux профессиональный (многоголосый), авторский (одноголосый, uncensored) 29,69 Гб MPEG-4 AVC Video / 35982 kbps / 1920x1080 / 23,976 fps / Dolby TrueHD Audio / 5.1 / 48 kHz / 1402 kbps -
Скачать Загрузка... BDRip720 2х Профессиональный (многоголосый, закадровый) + 3х Авторский (одноголосый) 6,30 Гб 640x360 (16:9), 0.003 fps, JPEG ~1 330 bps avg 48.0 kHz, AC3 Dolby Digital, 3/2 (L,C,R,l,r) + LFE ch, ~640 kbps |
Скачать Загрузка... WEB-DL Профессиональный многоголосый,закадровый (CP Digital) 778,56 Мб 704х396 (16:9), 23.976 fps, x264, 1032 kbps, 0.154 bit/pixel 48.0 kHz, AAC-LC, 2 ch, ~72 kbps avg
Скачать Загрузка... WEB-DL Профессиональный многоголосый 3,05 Гб MPEG-4 AVC, 3500 Кбит/с, 1024x576 Аудио №1: Русский (AC3, 2 ch, 192 Кбит/с) - Авторский одноголосый (Кашкин)Аудио №2: Русский (AC3, 2 ch, 192 Кбит/с) - Авторский одноголосый (Алексеев)Аудио №3: Английский (AC3, 6 ch, 448 Кбит/с) MediaInfoОбщееУникальный идентификатор : 253220244627148597101226149558708685742 (0xBE8071F659884A9E8AAF865ED2854BAE)Полное имя : D:11Na.igle.1996.x264.BDRip.(AVC).ExKinoRay.mkvФормат : MatroskaРазмер файла : 2,84 ГбайтПродолжительность : 1 ч. 33 м.Общий поток : 4330 Кбит/секНазвание фильма : Na.Igle.1996.x264.BDRip.(AVC).ExKinoRayДата кодирования : UTC 2014-09-05 15:44:11Программа кодирования : mkvmerge v4.0.0 ('The Stars were mine') сборка от Jun 6 2010 16:18:42Библиотека кодирования : libebml v1.0.0 + libmatroska v1.0.0 ВидеоИдентификатор : 1Формат : AVCФормат/Информация : Advanced Video CodecПрофиль формата : [email protected]Параметр CABAC формата : ДаПараметр ReFrames формата : 8 кадровИдентификатор кодека : V_MPEG4/ISO/AVCПродолжительность : 1 ч. 33 м.Битрейт : 3500 Кбит/секШирина : 1024 пикс.Высота : 576 пикс.Соотношение сторон : 16:9Частота кадров : 23,976 кадр/секЦветовое пространство : YUVПодвыборка цветности : 4:2:0Битовая глубина : 8 битТип развёртки : ПрогрессивнаяБит/(Пиксели*Кадры) : 0.247Размер потока : 2,24 Гбайт (79%)Заголовок : Rip by Enigma-Vladislav71Библиотека кодирования : x264 core 129 r2245 bc13772Настройки программы : cabac=1 / ref=8 / deblock=1:-2:-2 / analyse=0x3:0x133 / me=umh / subme=11 / psy=1 / psy_rd=1.00:0.00 / mixed_ref=1 / me_range=48 / chroma_me=1 / trellis=2 / 8x8dct=1 / cqm=0 / deadzone=21,11 / fast_pskip=0 / chroma_qp_offset=-2 / threads=3 / lookahead_threads=1 / sliced_threads=0 / nr=0 / decimate=0 / interlaced=0 / bluray_compat=0 / constrained_intra=0 / bframes=8 / b_pyramid=2 / b_adapt=2 / b_bias=0 / direct=3 / weightb=1 / open_gop=0 / weightp=2 / keyint=240 / keyint_min=23 / scenecut=40 / intra_refresh=0 / rc=2pass / mbtree=0 / bitrate=3500 / ratetol=1.0 / qcomp=0.60 / qpmin=10 / qpmax=51 / qpstep=4 / cplxblur=20.0 / qblur=0.5 / ip_ratio=1.40 / pb_ratio=1.30 / aq=2:1.00Язык : English Аудио #1Идентификатор : 2Формат : AC-3Формат/Информация : Audio Coding 3Расширение режима : CM (complete main)Идентификатор кодека : A_AC3Продолжительность : 1 ч. 33 м.Вид битрейта : ПостоянныйБитрейт : 192 Кбит/секКаналы : 2 каналаРасположение каналов : Front: L RЧастота : 48,0 КГцБитовая глубина : 16 битМетод сжатия : С потерямиРазмер потока : 129 Мбайт (4%)Заголовок : АП (Кашкин)Язык : Russian Аудио #2Идентификатор : 3Формат : AC-3Формат/Информация : Audio Coding 3Расширение режима : CM (complete main)Идентификатор кодека : A_AC3Продолжительность : 1 ч. 33 м.Вид битрейта : ПостоянныйБитрейт : 192 Кбит/секКаналы : 2 каналаРасположение каналов : Front: L RЧастота : 48,0 КГцБитовая глубина : 16 битМетод сжатия : С потерямиРазмер потока : 129 Мбайт (4%)Заголовок : АП (Алексеев)Язык : Russian Аудио #3Идентификатор : 4Формат : AC-3Формат/Информация : Audio Coding 3Расширение режима : CM (complete main)Идентификатор кодека : A_AC3Продолжительность : 1 ч. 33 м.Вид битрейта : ПостоянныйБитрейт : 448 Кбит/секКаналы : 6 каналовРасположение каналов : Front: L C R, Side: L R, LFEЧастота : 48,0 КГцБитовая глубина : 16 битМетод сжатия : С потерямиРазмер потока : 301 Мбайт (10%)Заголовок : АнглийскийЯзык : English Текст #1Идентификатор : 5Формат : UTF-8Идентификатор кодека : S_TEXT/UTF8Идентификатор кодека/Информация : UTF-8 Plain TextЗаголовок : 1Язык : Russian Текст #2Идентификатор : 6Формат : UTF-8Идентификатор кодека : S_TEXT/UTF8Идентификатор кодека/Информация : UTF-8 Plain TextЗаголовок : 2Язык : Russian Текст #3Идентификатор : 7Формат : UTF-8Идентификатор кодека : S_TEXT/UTF8Идентификатор кодека/Информация : UTF-8 Plain TextЗаголовок : 3Язык : Russian Текст #4Идентификатор : 8Формат : UTF-8Идентификатор кодека : S_TEXT/UTF8Идентификатор кодека/Информация : UTF-8 Plain TextЯзык : English Меню00:00:00.000 : en:Chapter 0100:05:00.000 : en:Chapter 0200:10:00.000 : en:Chapter 0300:15:00.000 : en:Chapter 0400:20:00.000 : en:Chapter 0500:25:00.000 : en:Chapter 0600:30:00.000 : en:Chapter 0700:35:00.000 : en:Chapter 0800:40:00.000 : en:Chapter 0900:45:00.000 : en:Chapter 1000:50:00.000 : en:Chapter 1100:55:00.000 : en:Chapter 1201:00:00.000 : en:Chapter 1301:05:00.000 : en:Chapter 1401:10:00.000 : en:Chapter 1501:15:00.000 : en:Chapter 1601:20:00.000 : en:Chapter 1701:25:00.000 : en:Chapter 1801:30:00.000 : en:Chapter 19 Скриншоты
Скачать Загрузка... Дубляж [Blu-ray CEE] 16,12 Гб AVC, 1280x692 (1,85:1), 6555 kbps, 23,976 fps, 0.309 bpp AC3 / 5.1 / 48 kHz / 640 kbps / 16 bit |

У нас вы можете легко скачать На игле через торрент бесплатно в хорошем качестве, оставляйте комментарии и делитесь впечатлениями!



Добавить комментарий

Ваше имя

Комментарий

Все рекомендуемые нами программы доступны на странице Скачать. На сайте Кино как То всегда все новые фильмы, доступные к скачиванию через торрент.

Рекомендуем скачать фильмы через торрент

Кино как то Контакты:
Адрес: Гаражный пр. 13 105275 Москва,