.
» » Земляничная поляна


Трейлер к фильму
Смотреть сейчас!

Описание фильма "Земляничная поляна"

78-летний профессор из Стокгольма вспоминает и пересматривает разочарования своей долгой жизни. Вместе с женой сына он едет на машине на вручение почетной докторской степени, посещая по пути места, где был молод, встречая разных людей и старых знакомых, вспоминая сны и былое.

Скачать Земляничная поляна через торрент

Вниманию правообладателей! Просьба претензии к контенту отправлять на почтовый ящик [email protected]
Сиды Качество Перевод Размер Видео Аудио
Скачать Загрузка... BDRip1080 Профессиональный (многоголосый закадровый) DVD Магия 7,31 Гб AVC / 9534 kbps / 948x720 / 23.976 fps / 1.33:1 English AAC 1.0 / 48 kHz / 34 kbps (Комментарии)
Скачать Загрузка... WEB-DL Профессиональный многоголосый 2,47 Гб MPEG-4 AVC, 3337 Кбит/с, 768x576 Аудио №1: Русский (AC3, 2 ch, 192 Кбит/с) - Профессиональный многоголосый (Видеоимпульс)Аудио №2: Русский (AC3, 2 ch, 192 Кбит/с) - Профессиональный многоголосый (DVD Магия) MediaInfoОбщееУникальный идентификатор : 229901458130200525334605164897511205974 (0xACF56905F49D83DB83FB489EA548EC56)Полное имя : D:6Zemljanichnaja.poljana.1957.x264.BDRip.(AVC).ExKinoRay.mkvФормат : MatroskaРазмер файла : 2,30 ГбайтПродолжительность : 1 ч. 28 м.Общий поток : 3722 Кбит/секНазвание фильма : Zemljanichnaja.poljana.1957.x264.BDRip.(AVC).ExKinoRayДата кодирования : UTC 2014-07-03 17:03:42Программа кодирования : mkvmerge v4.0.0 ('The Stars were mine') сборка от Jun 6 2010 16:18:42Библиотека кодирования : libebml v1.0.0 + libmatroska v1.0.0 ВидеоИдентификатор : 1Формат : AVCФормат/Информация : Advanced Video CodecПрофиль формата : [email protected]Параметр CABAC формата : ДаПараметр ReFrames формата : 8 кадровИдентификатор кодека : V_MPEG4/ISO/AVCПродолжительность : 1 ч. 28 м.Битрейт : 3337 Кбит/секШирина : 768 пикс.Высота : 576 пикс.Соотношение сторон : 4:3Частота кадров : 25,000 кадр/секЦветовое пространство : YUVПодвыборка цветности : 4:2:0Битовая глубина : 8 битТип развёртки : ПрогрессивнаяБит/(Пиксели*Кадры) : 0.302Размер потока : 2,02 Гбайт (88%)Заголовок : Rip by Enigma-Vladislav71Библиотека кодирования : x264 core 125 r2208 d9d2288Настройки программы : cabac=1 / ref=8 / deblock=1:-2:-2 / analyse=0x3:0x133 / me=umh / subme=11 / psy=1 / psy_rd=1.00:0.00 / mixed_ref=1 / me_range=48 / chroma_me=1 / trellis=2 / 8x8dct=1 / cqm=0 / deadzone=21,11 / fast_pskip=0 / chroma_qp_offset=-2 / threads=3 / lookahead_threads=1 / sliced_threads=0 / nr=0 / decimate=0 / interlaced=0 / bluray_compat=0 / constrained_intra=0 / bframes=8 / b_pyramid=2 / b_adapt=2 / b_bias=0 / direct=3 / weightb=1 / open_gop=0 / weightp=2 / keyint=250 / keyint_min=25 / scenecut=40 / intra_refresh=0 / rc=2pass / mbtree=0 / bitrate=3337 / ratetol=1.0 / qcomp=0.60 / qpmin=10 / qpmax=51 / qpstep=4 / cplxblur=20.0 / qblur=0.5 / ip_ratio=1.40 / pb_ratio=1.30 / aq=1:1.00Язык : English Аудио #1Идентификатор : 2Формат : AC-3Формат/Информация : Audio Coding 3Профиль формата : Dolby DigitalРасширение режима : CM (complete main)Идентификатор кодека : A_AC3Продолжительность : 1 ч. 28 м.Вид битрейта : ПостоянныйБитрейт : 192 Кбит/секКаналы : 2 каналаРасположение каналов : Front: L RЧастота : 48,0 КГцБитовая глубина : 16 битМетод сжатия : С потерямиРазмер потока : 121 Мбайт (5%)Заголовок : Профессиональный многоголосый (Видеоимпульс)Язык : Russian Аудио #2Идентификатор : 3Формат : AC-3Формат/Информация : Audio Coding 3Профиль формата : Dolby DigitalРасширение режима : CM (complete main)Идентификатор кодека : A_AC3Продолжительность : 1 ч. 28 м.Вид битрейта : ПостоянныйБитрейт : 192 Кбит/секКаналы : 2 каналаРасположение каналов : Front: L RЧастота : 48,0 КГцБитовая глубина : 16 битМетод сжатия : С потерямиРазмер потока : 121 Мбайт (5%)Заголовок : Профессиональный многоголосый (DVD Магия)Язык : Russian ТекстИдентификатор : 4Формат : UTF-8Идентификатор кодека : S_TEXT/UTF8Идентификатор кодека/Информация : UTF-8 Plain TextЯзык : Russian Скриншоты

У нас вы можете легко скачать Земляничная поляна через торрент бесплатно в хорошем качестве, оставляйте комментарии и делитесь впечатлениями!



Добавить комментарий

Ваше имя

Комментарий

Все рекомендуемые нами программы доступны на странице Скачать. На сайте Кино как То всегда все новые фильмы, доступные к скачиванию через торрент.

Рекомендуем скачать фильмы через торрент

Кино как то Контакты:
Адрес: Гаражный пр. 13 105275 Москва,