.
» » Чужой

Чужой (1979) cкачать торрент или смотреть онлайн

Оригинальное название: Alien
Производство: США, Великобритания
Режиссер: Ридли Скотт
В ролях: Сигурни Уивер, Том Скеррит, Иэн Холм, Джон Хёрт, Гарри Дин Стэнтон, Вероника Картрайт, Яфет Котто, Боладжи Бадеджо, Хелен Хортон
Жанр: Ужасы, Фантастика
Мировая премьера: 25 мая 1979
Возраст: 16+
Продолжительность: 116 мин. / 01:56
Рейтинги:
8.510(670991)
8.067(125473)

Трейлер к фильму
Смотреть сейчас!

Описание фильма "Чужой"

Некоторые фантастические фильмы со временем не стареют и всегда вызывают интерес. Один из таких кинолент - «Чужой», режиссером которой является мастер кинематографа Ридли Скотт, известный такими творениями, как «Гладиатор», «Ганнибал» и «Гангстер».

Итак, действия разворачиваются на космическом буксире под названием «Ностромо». Команда астронавтов, путешествующая домой, внезапно выходит из состояния анабиоза. Те просыпаются с уверенностью, что уже достигли Солнечной системе, однако с удивлением обнаруживают, что перелет завершится еще не скоро. Из состояния анабиоза их вывела автоматика корабля, которая с одной из планет приняла сигнал возможной просьбы о помощи.

В должностные инструкции астронавтов входит обнаружение источников такого сигнала, поэтому команда принимает решение высадиться на чужой планете, и провести исследование обстановки. Вскоре они находят инопланетный космический корабль, а за его штурвалом мертвого пилота, с растерзанной грудной клеткой. К тому времени автоматика «Ностромо» вводит уточнение значения сигнала, который в действительности являлся не просьбой о помощи, а предупреждением об опасности. Вдобавок к неожиданным неприятностям, астронавты теряют связь с кораблем, после чего их ожидает столкновение с неизвестным. Семеро астронавтов даже понятия не имеют, какие твари водятся здесь. Кажется, эти существа, обладающие невероятной способностью к регенерации и ужасным обликом, дождались очередную жертву.

Картина Чужой снята в лучших традициях классического научно-фантастического фильма, и была удостоена множеству престижных наград, в том числе и премии Оскар за лучшие визуальные эффекты.

Скачать Чужой через торрент

Вниманию правообладателей! Просьба претензии к контенту отправлять на почтовый ящик [email protected]
Сиды Качество Перевод Размер Видео Аудио
Скачать Загрузка... BDRemux Дублированный, Профессиональный (многоголосый, закадровый), Авторский одноголосый. 28,12 Гб MPEG-4 AVC, 19976 Кбит/с, 1920x1080, 23.976 кадр/с [Theatrical Cut] English: 48 kHz, DTS-HD MA, 3/2 (L,C,R,l,r) + LFE ch, ~3385.00 kbps avg
Скачать Загрузка... BDRip1080 профессиональный (дублированный), профессиональный (многоголосый), авторский (одноголосый) 23,88 Гб MPEG-2 Video / 21 Mbps / 1920x1080 / 29.970 fps Аудио 1: Русский, DTS, 5.1, 48 KHz, 24 bit, 768 kbps | Профессиональный (дублированный) (Blu-Ray CEE)Аудио 2: Русский, DTS, 5.1, 48 KHz, 24 bit, 1536 kbps | Профессиональный (многоголосый закадровый) (LDV)Аудио 3: Русский, DTS, 5.1, 48 KHz, 24 bit, 1536 kbps | Авторский (одноголосый закадровый) (Гаврилов)Аудио 4: Украинский, АС3, 5.1, 48 KHz, 16 bit, 384 kbps | Профессиональный (многоголосый закадровый) (1+1)Аудио 5: Английский, DTS, 5.1, 48 KHz, 24 bit, 1536 kbps | ОригиналMediaInfoFormat : MatroskaFormat version : Version 2File size : 22.2 GiBDuration : 1 h 56 minOverall bit rate mode : VariableOverall bit rate : 27.2 Mb/sMovie name : Alien (Director's Cut) D-Theater Remux 1080iEncoded date : UTC 2017-11-17 20:05:41Writing application : mkvmerge v4.9.1 ('Ich will') сборка от Jul 11 2011 23:53:15Writing library : libebml v1.2.1 + libmatroska v1.1.1VideoID : 1Format : MPEG VideoFormat version : Version 2Format profile : [email protected] settings, BVOP : YesFormat settings, Matrix : CustomFormat settings, GOP : M=3, N=12Format settings, picture st : FrameCodec ID : V_MPEG2Codec ID/Info : MPEG 1 or 2 VideoDuration : 1 h 56 minBit rate mode : VariableBit rate : 21.0 Mb/sMaximum bit rate : 45.0 Mb/sWidth : 1 920 pixelsHeight : 1 080 pixelsDisplay aspect ratio : 16:9Frame rate mode : ConstantFrame rate : 29.970 (30000/1001) FPSColor space : YUVChroma subsampling : 4:2:0Bit depth : 8 bitsScan type : InterlacedScan order : Top Field FirstCompression mode : LossyBits/(Pixel*Frame) : 0.338Time code of first frame : 04:16:02;07Time code source : Group of pictures headerGOP, Open/Closed : OpenStream size : 17.2 GiB (77%)Title : Чужой (Director's Cut) D-Theater RemuxLanguage : EnglishDefault : YesForced : NoAudio #1ID : 2Format : DTSFormat/Info : Digital Theater SystemsMode : 16Format settings, Endianness : BigCodec ID : A_DTSDuration : 1 h 56 minBit rate mode : ConstantBit rate : 755 kb/sChannel(s) : 6 channelsChannel positions : Front: L C R, Side: L R, LFESampling rate : 48.0 kHzFrame rate : 93.750 FPS (512 SPF)Bit depth : 24 bitsCompression mode : LossyStream size : 631 MiB (3%)Title : DTS Профессиональный (дублированный) (Blu-Ray CEE)Language : RussianDefault : YesForced : NoAudio #2ID : 3Format : DTSFormat/Info : Digital Theater SystemsMode : 16Format settings, Endianness : BigCodec ID : A_DTSDuration : 1 h 56 minBit rate mode : ConstantBit rate : 1 510 kb/sChannel(s) : 6 channelsChannel positions : Front: L C R, Side: L R, LFESampling rate : 48.0 kHzFrame rate : 93.750 FPS (512 SPF)Bit depth : 24 bitsCompression mode : LossyStream size : 1.23 GiB (6%)Title : DTS Профессиональный (многоголосый закадровый) (LDV)Language : RussianDefault : NoForced : NoAudio #3ID : 4Format : DTSFormat/Info : Digital Theater SystemsMode : 16Format settings, Endianness : BigCodec ID : A_DTSDuration : 1 h 56 minBit rate mode : ConstantBit rate : 1 510 kb/sChannel(s) : 6 channelsChannel positions : Front: L C R, Side: L R, LFESampling rate : 48.0 kHzFrame rate : 93.750 FPS (512 SPF)Bit depth : 24 bitsCompression mode : LossyStream size : 1.23 GiB (6%)Title : DTS Авторский (одноголосый закадровый) (Гаврилов)Language : RussianDefault : NoForced : NoAudio #4ID : 5Format : AC-3Format/Info : Audio Coding 3Format settings, Endianness : BigCodec ID : A_AC3Duration : 1 h 56 minBit rate mode : ConstantBit rate : 384 kb/sChannel(s) : 6 channelsChannel positions : Front: L C R, Side: L R, LFESampling rate : 48.0 kHzFrame rate : 31.250 FPS (1536 SPF)Bit depth : 16 bitsCompression mode : LossyStream size : 321 MiB (1%)Title : АС3 Профессиональный (многоголосый закадровый) (1+1, Украина)Language : UkrainianService kind : Complete MainDefault : NoForced : NoAudio #5ID : 6Format : DTSFormat/Info : Digital Theater SystemsMode : 16Format settings, Endianness : BigCodec ID : A_DTSDuration : 1 h 56 minBit rate mode : ConstantBit rate : 1 510 kb/sChannel(s) : 6 channelsChannel positions : Front: L C R, Side: L R, LFESampling rate : 48.0 kHzFrame rate : 93.750 FPS (512 SPF)Bit depth : 24 bitsCompression mode : LossyStream size : 1.23 GiB (6%)Title : DTS ОригиналLanguage : EnglishDefault : NoForced : NoText #1ID : 7Format : UTF-8Codec ID : S_TEXT/UTF8Codec ID/Info : UTF-8 Plain TextTitle : FullLanguage : RussianDefault : NoForced : NoText #2ID : 8Format : UTF-8Codec ID : S_TEXT/UTF8Codec ID/Info : UTF-8 Plain TextTitle : FullLanguage : EnglishDefault : NoForced : NoСкриншоты D-Theater vs BD
Скачать Загрузка... BDRip1080 профессиональный (дублированный), авторский (одноголосый) 15,53 Гб MPEG-4 AVC / 13930 kbps / 1920x816 / 23.976 fps Аудио 1: Русский, DTS, 5.1, 48 KHz, 24 bit, 768 kbps | Профессиональный (дублированный)Аудио 2: Русский, DTS, 5.1, 48 KHz, 24 bit, 1536 kbps | Авторский (Гаврилов)Аудио 3: Английский, DTS, 5.1, 48 KHz, 24 bit, 1536 kbps | ОригиналMediaInfoFormat : MatroskaFormat version : Version 2File size : 14.5 GiBDuration : 1 h 56 minOverall bit rate : 17.7 Mb/sMovie name : source:(D-Theater.MPEG-2.1080i),encoder:(Crusader3000),sound:(Прагматик)Encoded date : UTC 2011-01-17 20:44:46Writing application : mkvmerge v4.4.0 ('Die Wiederkehr') сборка от Oct 31 2010 21:52:48Writing library : libebml v1.0.0 + libmatroska v1.0.0VideoID : 1Format : AVCFormat/Info : Advanced Video CodecFormat profile : [email protected] settings, CABAC : YesFormat settings, RefFrames : 5 framesCodec ID : V_MPEG4/ISO/AVCDuration : 1 h 56 minBit rate : 13.9 Mb/sWidth : 1 920 pixelsHeight : 816 pixelsDisplay aspect ratio : 2.35:1Frame rate mode : ConstantFrame rate : 23.976 (24000/1001) FPSColor space : YUVChroma subsampling : 4:2:0Bit depth : 8 bitsScan type : ProgressiveBits/(Pixel*Frame) : 0.371Stream size : 11.1 GiB (77%)Title : Alien (Director's Cut) DTheater Rip 1080pWriting library : x264 core 112 r1834 a51816aEncoding settings : cabac=1 / ref=5 / deblock=1:0:0 / analyse=0x3:0x113 / me=umh / subme=10 / psy=1 / psy_rd=0.80:0.20 / mixed_ref=1 / me_range=32 / chroma_me=1 / trellis=2 / 8x8dct=1 / cqm=0 / deadzone=21,11 / fast_pskip=0 / chroma_qp_offset=-3 / threads=6 / sliced_threads=0 / nr=0 / decimate=0 / interlaced=0 / constrained_intra=0 / bframes=10 / b_pyramid=2 / b_adapt=2 / b_bias=0 / direct=3 / weightb=1 / open_gop=0 / weightp=2 / keyint=250 / keyint_min=23 / scenecut=40 / intra_refresh=0 / rc_lookahead=0 / rc=2pass / mbtree=0 / bitrate=13930 / ratetol=1.0 / qcomp=0.65 / qpmin=0 / qpmax=51 / qpstep=4 / cplxblur=20.0 / qblur=0.5 / vbv_maxrate=50000 / vbv_bufsize=62500 / ip_ratio=1.40 / pb_ratio=1.30 / aq=1:0.60 / nal_hrd=noneLanguage : EnglishDefault : YesForced : NoColor range : LimitedMatrix coefficients : BT.709Audio #1ID : 2Format : DTSFormat/Info : Digital Theater SystemsMode : 16Format settings, Endianness : BigCodec ID : A_DTSDuration : 1 h 56 minBit rate mode : ConstantBit rate : 755 kb/sChannel(s) : 6 channelsChannel positions : Front: L C R, Side: L R, LFESampling rate : 48.0 kHzFrame rate : 93.750 FPS (512 SPF)Bit depth : 24 bitsCompression mode : LossyStream size : 631 MiB (4%)Title : DTS 5.1 768 kbps | ДубляжLanguage : RussianDefault : YesForced : NoAudio #2ID : 3Format : DTSFormat/Info : Digital Theater SystemsMode : 16Format settings, Endianness : BigCodec ID : A_DTSDuration : 1 h 56 minBit rate mode : ConstantBit rate : 1 510 kb/sChannel(s) : 6 channelsChannel positions : Front: L C R, Side: L R, LFESampling rate : 48.0 kHzFrame rate : 93.750 FPS (512 SPF)Bit depth : 24 bitsCompression mode : LossyStream size : 1.23 GiB (9%)Title : DTS 5.1 1536 kbps | ГавриловLanguage : RussianDefault : NoForced : NoAudio #3ID : 4Format : DTSFormat/Info : Digital Theater SystemsMode : 16Format settings, Endianness : BigCodec ID : A_DTSDuration : 1 h 56 minBit rate mode : ConstantBit rate : 1 510 kb/sChannel(s) : 6 channelsChannel positions : Front: L C R, Side: L R, LFESampling rate : 48.0 kHzFrame rate : 93.750 FPS (512 SPF)Bit depth : 24 bitsCompression mode : LossyStream size : 1.23 GiB (9%)Title : DTS 5.1 1536 kbps | OriginalLanguage : EnglishDefault : NoForced : NoText #1ID : 5Format : UTF-8Codec ID : S_TEXT/UTF8Codec ID/Info : UTF-8 Plain TextTitle : Russian, from Blu-ray CEELanguage : RussianDefault : NoForced : NoText #2ID : 6Format : UTF-8Codec ID : S_TEXT/UTF8Codec ID/Info : UTF-8 Plain TextTitle : Russian, КиноманияLanguage : RussianDefault : NoForced : NoText #3ID : 7Format : UTF-8Codec ID : S_TEXT/UTF8Codec ID/Info : UTF-8 Plain TextTitle : Russian, Расширенные вставки для озвучки ГоблинаLanguage : RussianDefault : NoForced : NoText #4ID : 8Format : UTF-8Codec ID : S_TEXT/UTF8Codec ID/Info : UTF-8 Plain TextTitle : English, PSDHLanguage : EnglishDefault : NoForced : NoСкриншоты D-Theater vs BD
Скачать Загрузка... BDRip720 Дублированный, профессиональный (многоголосый, закадровый), профессиональный (одноголосый, закадровый), авторский (одноголосый, закадровый) 9,26 Гб AVC, 1280x542 (2.35:1), 23.976 fps, 4 470 Kbps (0.269 bit/pixel) AC-3, 48.0 KHz, 6 ch, 448 Kbps, CBR (English) - оригинальная звук.дорожка
Скачать Загрузка... BDRip720 Профессиональный (полное дублирование) Лицензия 3,88 Гб 1280x544 (2.35:1) at 23.976 fps, AVC at 3927 kbps avg, 0.235 bit/pixel 48 kHz, AC3 Dolby Digital, 3/2 (L,C,R,l,r) + LFE ch, 448 kbps avg
Скачать Загрузка... WEB-DL Профессиональный (полное дублирование) 782,13 Мб MPEG-4 AVC, 736x312, ~ 813 Кбит/с AAC-LC, 2 ch, ~ 76 Кбит/с
Скачать Загрузка... WEB-DL профессиональный (дублированный), авторский (одноголосый) 4,73 Гб MPEG-4 AVC, 1024x432 (2.40:1), 3212 Kbit/s, 23.976 fps, 0,303 bpp 48 kHz, AC3, 5.1 ch, 448 Kbps | ENG

У нас вы можете легко скачать Чужой через торрент бесплатно в хорошем качестве, оставляйте комментарии и делитесь впечатлениями!



Добавить комментарий

Ваше имя

Комментарий

Все рекомендуемые нами программы доступны на странице Скачать. На сайте Кино как То всегда все новые фильмы, доступные к скачиванию через торрент.

Рекомендуем скачать фильмы через торрент

Кино как то Контакты:
Адрес: Гаражный пр. 13 105275 Москва,