.
» » Тропы славы

Тропы славы (1957) cкачать торрент или смотреть онлайн

Оригинальное название: Paths of Glory
Производство: США
Режиссер: Стэнли Кубрик
В ролях: Кирк Дуглас, Ральф Микер, Адольф Менжу, Джордж Макреди, Уэйн Моррис, Ричард Андерсон, Джо Тёркел, Кристиана Кубрик, Джерри Хауснер, Питер Кэпелл, Эмиль Мейер, Берт Фрид, Кем Диббс, Тимоти Кэри, Фред Белл, Джон Стейн, Харольд Бенедикт
Жанр: Драма, Военные
Мировая премьера: 1 ноября 1957
Возраст: 12+
Продолжительность: 88 мин. / 01:28
Рейтинги:
8.410(148374)
8.075(10226)

Трейлер к фильму
Смотреть сейчас!

Описание фильма "Тропы славы"

Действие киноромана развертывается в 1916 году на Западном фронте. Полковник Дэкс командует пехотным полком французской армии. Уже два года союзники пытаются переломить ход войны с немцами. Начальник корпуса генерал Брулард приказывает дивизионному генералу Миро атаковать неприступную вражескую позицию, прозванную Муравьиным холмом.Провал операции был очевиден изначально, но когда атака закончилась полной неудачей, генерал приказал судить и расстрелять за трусость троих человек. Полковник Дэкс тщетно пытался защитить солдат, выбранных произвольно. Они отдали свои жизни, чтобы прикрыть глупость и амбиции начальства

Скачать Тропы славы через торрент

Вниманию правообладателей! Просьба претензии к контенту отправлять на почтовый ящик [email protected]
Сиды Качество Перевод Размер Видео Аудио
Скачать Загрузка... WEB-DL 415,14 Мб MPEG-4 AVC, 500 Кбит/с, 480x288, 23.976 кадр/с Русский (AAC, 2 ch, 128 Кбит/с) / Профессиональный многоголосый
Скачать Загрузка... WEB-DL Профессиональный многоголосый 2,61 Гб MPEG-4 AVC, 3234 Кбит/с, 956x576 Аудио №1: Русский (AC3, 1 ch, 128 Кбит/с) - Профессиональный многоголосый (SomeWax)Аудио №2: Русский (AC3, 1 ch, 128 Кбит/с) - Профессиональный многоголосый Аудио №3: Английский (AC3, 1 ch, 448 Кбит/с) MediaInfoОбщий поток : 3940 Кбит/секНазвание фильма : Tropy.slavy.1957.x264.HDRip.(AVC).ExKinoRayДата кодирования : UTC 2014-09-12 15:46:22Программа кодирования : mkvmerge v4.0.0 ('The Stars were mine') сборка от Jun 6 2010 16:18:42Библиотека кодирования : libebml v1.0.0 + libmatroska v1.0.0 ВидеоИдентификатор : 1Формат : AVCФормат/Информация : Advanced Video CodecПрофиль формата : [email protected]Параметр CABAC формата : ДаПараметр ReFrames формата : 8 кадровИдентификатор кодека : V_MPEG4/ISO/AVCПродолжительность : 1 ч. 28 м.Битрейт : 3234 Кбит/секШирина : 956 пикс.Высота : 576 пикс.Соотношение сторон : 1,660Частота кадров : 23,976 кадр/секЦветовое пространство : YUVПодвыборка цветности : 4:2:0Битовая глубина : 8 битТип развёртки : ПрогрессивнаяБит/(Пиксели*Кадры) : 0.245Размер потока : 1,95 Гбайт (80%)Заголовок : Rip by Enigma-Vladislav71Библиотека кодирования : x264 core 125 r2208 d9d2288Настройки программы : cabac=1 / ref=8 / deblock=1:-2:-2 / analyse=0x3:0x133 / me=umh / subme=11 / psy=1 / psy_rd=1.00:0.00 / mixed_ref=1 / me_range=48 / chroma_me=1 / trellis=2 / 8x8dct=1 / cqm=0 / deadzone=21,11 / fast_pskip=0 / chroma_qp_offset=-2 / threads=3 / lookahead_threads=1 / sliced_threads=0 / nr=0 / decimate=0 / interlaced=0 / bluray_compat=0 / constrained_intra=0 / bframes=8 / b_pyramid=2 / b_adapt=2 / b_bias=0 / direct=3 / weightb=1 / open_gop=0 / weightp=2 / keyint=240 / keyint_min=23 / scenecut=40 / intra_refresh=0 / rc=2pass / mbtree=0 / bitrate=3234 / ratetol=1.0 / qcomp=0.60 / qpmin=10 / qpmax=51 / qpstep=4 / cplxblur=20.0 / qblur=0.5 / ip_ratio=1.40 / pb_ratio=1.30 / aq=1:1.00Язык : English Аудио #1Идентификатор : 2Формат : AC-3Формат/Информация : Audio Coding 3Расширение режима : CM (complete main)Идентификатор кодека : A_AC3Продолжительность : 1 ч. 28 м.Вид битрейта : ПостоянныйБитрейт : 128 Кбит/секКаналы : 1 каналРасположение каналов : Front: CЧастота : 48,0 КГцБитовая глубина : 16 битМетод сжатия : С потерямиРазмер потока : 80,9 Мбайт (3%)Заголовок : Профессиональный многоголосый (SomeWax)Язык : Russian Аудио #2Идентификатор : 3Формат : AC-3Формат/Информация : Audio Coding 3Расширение режима : CM (complete main)Идентификатор кодека : A_AC3Продолжительность : 1 ч. 28 м.Вид битрейта : ПостоянныйБитрейт : 128 Кбит/секКаналы : 1 каналРасположение каналов : Front: CЧастота : 48,0 КГцБитовая глубина : 16 битМетод сжатия : С потерямиРазмер потока : 80,9 Мбайт (3%)Заголовок : Профессиональный многоголосыйЯзык : Russian Аудио #3Идентификатор : 4Формат : AC-3Формат/Информация : Audio Coding 3Расширение режима : CM (complete main)Идентификатор кодека : A_AC3Продолжительность : 1 ч. 28 м.Вид битрейта : ПостоянныйБитрейт : 448 Кбит/секКаналы : 1 каналРасположение каналов : Front: CЧастота : 48,0 КГцБитовая глубина : 16 битМетод сжатия : С потерямиРазмер потока : 283 Мбайт (11%)Язык : English Текст #1Идентификатор : 5Формат : UTF-8Идентификатор кодека : S_TEXT/UTF8Идентификатор кодека/Информация : UTF-8 Plain TextЯзык : Russian Текст #2Идентификатор : 6Формат : UTF-8Идентификатор кодека : S_TEXT/UTF8Идентификатор кодека/Информация : UTF-8 Plain TextЯзык : English Меню00:00:00.000 : en:Chapter 0100:02:22.392 : en:Chapter 0200:06:21.214 : en:Chapter 0300:09:03.000 : en:Chapter 0400:11:24.141 : en:Chapter 0500:14:45.384 : en:Chapter 0600:16:46.880 : en:Chapter 0700:21:22.281 : en:Chapter 0800:24:14.327 : en:Chapter 0900:25:29.194 : en:Chapter 1000:26:41.391 : en:Chapter 1100:32:13.097 : en:Chapter 1200:34:31.986 : en:Chapter 1300:35:58.364 : en:Chapter 1400:40:04.276 : en:Chapter 1500:41:51.800 : en:Chapter 1600:44:37.758 : en:Chapter 1700:52:41.950 : en:Chapter 1800:55:59.773 : en:Chapter 1900:56:45.443 : en:Chapter 2000:58:40.350 : en:Chapter 2101:01:58.506 : en:Chapter 2201:04:20.398 : en:Chapter 2301:09:27.079 : en:Chapter 2401:12:00.941 : en:Chapter 2501:17:32.314 : en:Chapter 2601:21:41.688 : en:Chapter 27 Скриншоты

У нас вы можете легко скачать Тропы славы через торрент бесплатно в хорошем качестве, оставляйте комментарии и делитесь впечатлениями!



Добавить комментарий

Ваше имя

Комментарий

Все рекомендуемые нами программы доступны на странице Скачать. На сайте Кино как То всегда все новые фильмы, доступные к скачиванию через торрент.

Рекомендуем скачать фильмы через торрент

Кино как то Контакты:
Адрес: Гаражный пр. 13 105275 Москва,