.
» » Гражданин Кейн

Гражданин Кейн (1941) cкачать торрент или смотреть онлайн

Оригинальное название: Citizen Kane
Производство: США
Режиссер: Орсон Уэллс
В ролях: Орсон Уэллс, Джозеф Коттен, Дороти Коминьоре, Агнес Мурхед, Рут Уоррик, Рэй Коллинз, Эрскин Сэнфорд, Эверет Слоун, Уильям Олленд, Пол Стюарт, Джордж Кулурис, Фортунио Бонанова, Гас Шиллинг, Филип Ван Зандт, Джорджия Бакус, Гарри Шэннон, Сонни Бапп, Бадди Суон
Жанр: Драма, Детективы
Мировая премьера: 1 мая 1941
Возраст: 12+
Продолжительность: 119 мин. / 01:59
Рейтинги:
8.410(350080)
7.827(24516)

Трейлер к фильму
Смотреть сейчас!

Описание фильма "Гражданин Кейн"

В шикарном поместье умирает газетный магнат Чарльз Фостер Кейн, роняя лишь одно слово: «Роузбад». Смерть Кейна вызывает бурную реакцию в обществе, и группа журналистов берется узнать, кем же он был на самом деле, что он пережил за свою долгую, полную взлетов и падений жизнь И что все-таки значит это «Роузбад»?

Скачать Гражданин Кейн через торрент

Вниманию правообладателей! Просьба претензии к контенту отправлять на почтовый ящик [email protected]
Сиды Качество Перевод Размер Видео Аудио
Скачать Загрузка... BDRemux Профессиональный многоголосый (Somewax, DVD Magic, Film Prestige, IDDK), авторский (Григорий Либергал) 32,20 Гб 1920x1080, 23.976 fps, 30652 kbps Английский: 48 kHz, AC3, 1.0 ch, ~192 kbps avg [Комментарии, Питер Богданович]
Скачать Загрузка... BDRip1080 Профессиональный (многоголосый, закадровый) Somewax, DVD Magic, Film Prestige, IDDK; Авторский - Григорий Либергал 8,57 Гб 1480x1080, 23.976 fps, ~8250 kbps 48 kHz, AC3, 2/0 ch, 192 kbps - Somewax48 kHz, AC3, 2/0 ch, 192 kbps - DVD Magic48 kHz, AC3, 2/0 ch, 192 kbps - Film Prestige48 kHz, AC3, 2/0 ch, 192 kbps - ИДДК48 kHz, AC3, 1/0 ch, 256 kbps - Либергал48 kHz, AC3, 1/0 ch, 256 kbps - Original
Скачать Загрузка... BDRip1080 Авторский (одноголосый закадровый) 15,50 Гб 1480x1080 at 23.976 fps, #1:
Скачать Загрузка... WEB-DL Профессиональный многоголосый, авторский 2,56 Гб MPEG-4 AVC, 1700 Кбит/с, 784x576 Аудио №1: Русский (AC3, 2 ch, 192 Кбит/с) - Профессиональный многоголосый (Somewax)Аудио №2: Русский (AC3, 2 ch, 192 Кбит/с) - Профессиональный многоголосый (DVD Magic)Аудио №3: Русский (AC3, 2 ch, 192 Кбит/с) - Профессиональный многоголосый (Film Prestige)Аудио №4: Русский (AC3, 2 ch, 192 Кбит/с) - Профессиональный многоголосый (IDDK)Аудио №5: Русский (AC3, 1 ch, 192 Кбит/с) - Авторский одноголосый (Либергал)Аудио №6: Английский (AC3, 1 ch, 192 Кбит/с) MediaInfoОбщееУникальный идентификатор : 173320520041022181318939101528518242263 (0x8264516553B60989873CE03CAAB32FD7)Полное имя : D:6Gragdanin.Kein.1941.x264.BDRip.(AVC).ExKinoRay.mkvФормат : MatroskaРазмер файла : 2,38 ГбайтПродолжительность : 1 ч. 59 м.Общий поток : 2855 Кбит/секНазвание фильма : Gragdanin.Kein.1941.x264.BDRip.(AVC).ExKinoRayДата кодирования : UTC 2014-03-18 16:29:15Программа кодирования : mkvmerge v4.0.0 ('The Stars were mine') сборка от Jun 6 2010 16:18:42Библиотека кодирования : libebml v1.0.0 + libmatroska v1.0.0 ВидеоИдентификатор : 1Формат : AVCФормат/Информация : Advanced Video CodecПрофиль формата : [email protected]Параметр CABAC формата : ДаПараметр ReFrames формата : 8 кадровИдентификатор кодека : V_MPEG4/ISO/AVCПродолжительность : 1 ч. 59 м.Битрейт : 1700 Кбит/секШирина : 784 пикс.Высота : 576 пикс.Соотношение сторон : 4:3Частота кадров : 23,976 кадр/секЦветовое пространство : YUVПодвыборка цветности : 4:2:0Битовая глубина : 8 битТип развёртки : ПрогрессивнаяБит/(Пиксели*Кадры) : 0.157Размер потока : 1,37 Гбайт (58%)Заголовок : Rip by Enigma-Vladislav71Библиотека кодирования : x264 core 125 r2208 d9d2288Настройки программы : cabac=1 / ref=8 / deblock=1:-2:-2 / analyse=0x3:0x133 / me=umh / subme=11 / psy=1 / psy_rd=1.00:0.00 / mixed_ref=1 / me_range=48 / chroma_me=1 / trellis=2 / 8x8dct=1 / cqm=0 / deadzone=21,11 / fast_pskip=0 / chroma_qp_offset=-2 / threads=3 / lookahead_threads=1 / sliced_threads=0 / nr=0 / decimate=0 / interlaced=0 / bluray_compat=0 / constrained_intra=0 / bframes=8 / b_pyramid=2 / b_adapt=2 / b_bias=0 / direct=3 / weightb=1 / open_gop=0 / weightp=2 / keyint=240 / keyint_min=23 / scenecut=40 / intra_refresh=0 / rc=2pass / mbtree=0 / bitrate=1700 / ratetol=1.0 / qcomp=0.60 / qpmin=10 / qpmax=51 / qpstep=4 / cplxblur=20.0 / qblur=0.5 / ip_ratio=1.40 / pb_ratio=1.30 / aq=1:1.00Язык : English Аудио #1Идентификатор : 2Формат : AC-3Формат/Информация : Audio Coding 3Расширение режима : CM (complete main)Идентификатор кодека : A_AC3Продолжительность : 1 ч. 59 м.Вид битрейта : ПостоянныйБитрейт : 192 Кбит/секКаналы : 2 каналаРасположение каналов : Front: L RЧастота : 48,0 КГцБитовая глубина : 16 битМетод сжатия : С потерямиРазмер потока : 164 Мбайт (7%)Заголовок : Профессиональный многоголосый (Somewax)Язык : Russian Аудио #2Идентификатор : 3Формат : AC-3Формат/Информация : Audio Coding 3Расширение режима : CM (complete main)Идентификатор кодека : A_AC3Продолжительность : 1 ч. 59 м.Вид битрейта : ПостоянныйБитрейт : 192 Кбит/секКаналы : 2 каналаРасположение каналов : Front: L RЧастота : 48,0 КГцБитовая глубина : 16 битМетод сжатия : С потерямиРазмер потока : 164 Мбайт (7%)Заголовок : Профессиональный многоголосый (DVD Magic)Язык : Russian Аудио #3Идентификатор : 4Формат : AC-3Формат/Информация : Audio Coding 3Расширение режима : CM (complete main)Идентификатор кодека : A_AC3Продолжительность : 1 ч. 59 м.Вид битрейта : ПостоянныйБитрейт : 192 Кбит/секКаналы : 2 каналаРасположение каналов : Front: L RЧастота : 48,0 КГцБитовая глубина : 16 битМетод сжатия : С потерямиРазмер потока : 164 Мбайт (7%)Заголовок : Профессиональный многоголосый (Film Prestige)Язык : Russian Аудио #4Идентификатор : 5Формат : AC-3Формат/Информация : Audio Coding 3Расширение режима : CM (complete main)Идентификатор кодека : A_AC3Продолжительность : 1 ч. 59 м.Вид битрейта : ПостоянныйБитрейт : 192 Кбит/секКаналы : 2 каналаРасположение каналов : Front: L RЧастота : 48,0 КГцБитовая глубина : 16 битМетод сжатия : С потерямиРазмер потока : 164 Мбайт (7%)Заголовок : Профессиональный многоголосый (IDDK)Язык : Russian Аудио #5Идентификатор : 6Формат : AC-3Формат/Информация : Audio Coding 3Расширение режима : CM (complete main)Идентификатор кодека : A_AC3Продолжительность : 1 ч. 59 м.Вид битрейта : ПостоянныйБитрейт : 192 Кбит/секКаналы : 1 каналРасположение каналов : Front: CЧастота : 48,0 КГцБитовая глубина : 16 битМетод сжатия : С потерямиРазмер потока : 164 Мбайт (7%)Заголовок : Авторский одноголосый (Либергал)Язык : Russian Аудио #6Идентификатор : 7Формат : AC-3Формат/Информация : Audio Coding 3Расширение режима : CM (complete main)Идентификатор кодека : A_AC3Продолжительность : 1 ч. 59 м.Вид битрейта : ПостоянныйБитрейт : 192 Кбит/секКаналы : 1 каналРасположение каналов : Front: CЧастота : 48,0 КГцБитовая глубина : 16 битМетод сжатия : С потерямиРазмер потока : 164 Мбайт (7%)Заголовок : АнглийскийЯзык : English Текст #1Идентификатор : 8Формат : UTF-8Идентификатор кодека : S_TEXT/UTF8Идентификатор кодека/Информация : UTF-8 Plain TextЯзык : Russian Текст #2Идентификатор : 9Формат : UTF-8Идентификатор кодека : S_TEXT/UTF8Идентификатор кодека/Информация : UTF-8 Plain TextЯзык : English Меню00:00:00.000 : en:Chapter 0100:03:11.733 : en:Chapter 0200:12:30.124 : en:Chapter 0300:14:22.778 : en:Chapter 0400:17:18.245 : en:Chapter 0500:18:36.365 : en:Chapter 0600:22:55.415 : en:Chapter 0700:27:14.257 : en:Chapter 0800:29:49.871 : en:Chapter 0900:32:22.148 : en:Chapter 1000:37:23.908 : en:Chapter 1100:39:49.470 : en:Chapter 1200:45:09.456 : en:Chapter 1300:49:26.129 : en:Chapter 1400:55:09.889 : en:Chapter 1501:00:36.466 : en:Chapter 1601:03:45.071 : en:Chapter 1701:10:48.577 : en:Chapter 1801:15:27.814 : en:Chapter 1901:17:35.192 : en:Chapter 2001:22:51.716 : en:Chapter 2101:25:16.194 : en:Chapter 2201:29:07.592 : en:Chapter 2301:32:29.293 : en:Chapter 2401:38:19.393 : en:Chapter 2501:40:40.409 : en:Chapter 2601:43:45.302 : en:Chapter 2701:47:06.837 : en:Chapter 2801:51:28.390 : en:Chapter 2901:54:49.757 : en:Chapter 3001:57:12.233 : en:Chapter 31 Скриншоты

У нас вы можете легко скачать Гражданин Кейн через торрент бесплатно в хорошем качестве, оставляйте комментарии и делитесь впечатлениями!



Добавить комментарий

Ваше имя

Комментарий

Все рекомендуемые нами программы доступны на странице Скачать. На сайте Кино как То всегда все новые фильмы, доступные к скачиванию через торрент.

Рекомендуем скачать фильмы через торрент

Кино как то Контакты:
Адрес: Гаражный пр. 13 105275 Москва,